Jump to content
Sign in to follow this  
Norikazu Watanabe

マルチビデオトラックの切り換え

Recommended Posts

以下のような、ドライブレコーダー画像で、前後のカメラ画像のマルチトラックとなっているデータについて

表示するトラックを切り替えるような機能はありませんか?

タイミングによって、前方画面から後方画面への切り換えて動画編集を行いたいです。

 

Writing library                : FNAM/mnt/mmc/Recordings/20200503-120958_NOR_D2.avi

Video #1
ID                             : 0
Format                         : AVC
Format/Info                    : Advanced Video Codec
Format profile                 : Baseline@L4
Format settings, CABAC         : No
Format settings, RefFrames     : 1 frame
Format settings, GOP           : M=1, N=43
Codec ID                       : H264
Duration                       : 1 min 1 s
Bit rate                       : 13.7 Mb/s
Width                          : 1 920 pixels
Height                         : 1 080 pixels
Display aspect ratio           : 16:9
Frame rate                     : 21.075 FPS
Color space                    : YUV
Chroma subsampling             : 4:2:0
Bit depth                      : 8 bits
Scan type                      : Progressive
Bits/(Pixel*Frame)             : 0.313
Stream size                    : 100 MiB (70%)

Video #2
ID                             : 1
Format                         : AVC
Format/Info                    : Advanced Video Codec
Format profile                 : Baseline@L3.1
Format settings, CABAC         : No
Format settings, RefFrames     : 1 frame
Codec ID                       : H264
Duration                       : 1 min 1 s
Bit rate                       : 5 504 kb/s
Width                          : 1 280 pixels
Height                         : 720 pixels
Display aspect ratio           : 16:9
Frame rate                     : 21.353 FPS
Color space                    : YUV
Chroma subsampling             : 4:2:0
Bit depth                      : 8 bits
Scan type                      : Progressive
Bits/(Pixel*Frame)             : 0.280
Stream size                    : 40.4 MiB (28%)

Audio
ID                             : 2
Format                         : PCM
Format settings, Endianness    : Little
Format settings, Sign          : Signed
Codec ID                       : 1
Duration                       : 1 min 1 s
Bit rate mode                  : Constant
Bit rate                       : 352.8 kb/s
Channel(s)                     : 1 channel
Sampling rate                  : 22.05 kHz
Bit depth                      : 16 bits
Stream size                    : 2.59 MiB (2%)
Alignment                      : Aligned on interleaves
Interleave, duration           : 100  ms (2.11 video frames)

Text
ID                             : 3
Duration                       : 1 min 1 s
Bit rate                       : 2 154 b/s
Stream size                    : 16.2 KiB (0%)

Share this post


Link to post
Share on other sites

表示するトラックを切り替える事はできないと思うのですが、動画を簡単に分割する事ができるので、分割した動画を繋げて動画作成をしています。

Share this post


Link to post
Share on other sites

Join the conversation

You can post now and register later. If you have an account, sign in now to post with your account.
Note: Your post will require moderator approval before it will be visible.

Guest
Reply to this topic...

×   Pasted as rich text.   Paste as plain text instead

  Only 75 emoji are allowed.

×   Your link has been automatically embedded.   Display as a link instead

×   Your previous content has been restored.   Clear editor

×   You cannot paste images directly. Upload or insert images from URL.

Sign in to follow this  

×
×
  • Create New...